Mulan Ost Flac

Playtime: 01:26. Mulan: An Original Walt Disney Records Soundtrack is the soundtrack for the 1998 Disney animated film, Mulan. 6 X Track quality 100. The Pirate Bay torrent website is the king of the torrent sites. 7 MB) Audio Create Time: File Size: 338. You may have to register before you can post: click the register link above to proceed. Game Of Thrones Final Season OST - Violin & Erhu Epic Cover 7. Index last generated: 2020-05-04 09:56 -07:00. Check out Frozen 2 (Original Motion Picture Soundtrack/Deluxe Edition) by Various artists on Amazon Music. Mulan OST - 13. m4a4,827 KB09 Mumia. Mulan: An Original Walt Disney Records Soundtrack. IBit - Verified Torrent Search Engine. 1 OST [FLAC TNT] Music 11 hours bittorrent. Dragon Ball Super; One Piece; The Ancient Magus' Bride. Temat: Mulan - OST Mulan - OST 1. Car forum lamborghini bmw mercedes s2000 land c6 Custom Search. 2 % Extraction speed 6. Koreans Favorite Movie OST 100 (한국인이 좋아하는 영화 OST 100) 01 Celine Dion - My Heart Will Go On (Titanic OST) 02 Love Theme (Cinema Paradiso OST) 03 Jessica - Goodbye (약속 OST) 04 Radiohead -. - Mulan – Mi dulce y linda flor 59. May 3, 2020 ZeroZeroZero Soundtrack By Mogwai; May 3, 2020 Das Boot: Staffel 2 Soundtrack By Matthias Weber; May 3, 2020 Legends of the Fall Soundtrack Expanded By James Horner; May 3, 2020 Un detective Soundtrack By Fred Bongusto; May 3, 2020 Soy Luna Soundtrack; May 3, 2020 Highlander Soundtrack Complete By Michael Kamen, Queen; May 3, 2020 Salut Jerusalem Soundtrack By Vangelis. Easy and quick download. Each volume was released individually on CD and cassette between 1995 and 1998. com | 违法不良信息举报电话:4000233233转3 | 营业执照. from The Definitive 16-bit FLAC; Preview Best of One Night Only (Live) Best of (Live) Donny Osmond 2017 From kr 90,00. I'll Make A Man Out Of You - Donny Osmond 4. Welcome to YesAsia. Christina Aguilera - Loyal Brave True (From Mulan)03. His first album, The Jazz Soul of Little Stevie, was released in 1962 when he was 12 years old, and his most recent, A Time to Love, was released in 2005. IP address is required in most cyber tracking services and keeping known your unique IP address is a good task. Nakupujte jednotlivé skladby nebo celá alba interpreta Christina Aguilera, a to v digitálním formátu MP3, FLAC/Hi-Res (WAV) či ve fyzické podobě na CD i LP (vinyl). At age six, she began performing regularly in local talent shows, working her way up to an appearance on the nationally televised competition Star Search. Happy Working. 14 tracks (59:32). Sign in to like videos, comment, and subscribe. 6 Below: Miracle on the Mountain. 28th Jan 2017 - Added lots of missing images. Atlanta Monster (Original Podcast Soundtrack) Audio codec: MP3. Ed Sheeran - Cross Me - Erhu Cover 6. 09 Gb Tracklist: 1. 3 If you want to convert your WAV,WMA 9 or OGG files to MP3 format, this program is exactly what you are looking for. "A Whole New World" (the film's hit single) and Robin Williams' bravura performance as the magic lamp on songs such as "Friend Like Me" and "Prince Ali" are justifiably credited as. I still listen to it regularly in my car and sing along with it at the top of my lungs a great soundtrack to have. Mulan had a lot of this. Aretha Franklin - Who's Zoomin' Who. Cristiana (Ewan McGregor) es un joven escritor que tiene un don para la poesía y se enfrenta a su padre para poder pasar al barrio bohemio de Montmartre en París. Nidji - (2015) Supernova (Original Soundtrack) 01. Babenhausen. Genre: Score Date: 2015 (1998) Country: USA Audio codec: MP3 Quality: 320. How Far I'll Go ( Moana ) 3. Strange Things 06. What they're going to say. 花木蘭 Mulan 2009([email protected] @ [email protected] 普通 電視神器 簡單TV v13. Publicada hace 2 años. Container: FLAC (tracks) Quality: Hi-Fi, lossless audio Sample Rate: 44. Sign in to like videos, comment, and subscribe. Fate/Grand Order: Zettai Majuu Sensen Babylonia [OST] [320K/FLAC] Fate/Grand Order -絶対魔獣戦線バビロニア-. com converter. The vegetation and flora of Lakeba, Nayau and Aiwa Islands, Central Lau Group, Fiji Article (PDF Available) · February 2009 with 840 Reads How we measure 'reads'. Can You Feel the Love Tonight (Le Roi Lion) 4. rar (1986) Hoosiers [2012,Intrada] - Jerry Goldsmith. We have 75 Jerry-Goldsmith Music torrents for you!. 0 % Test CRC 05682A99 Copy CRC 05682A99 Track not present in AccurateRip database Copy OK Track 12. MP3 Music, May 22, 2019. com is a free search engine: flac, mp3, ogg and mp4. Just Around The Riverbend ( Pocahontas ) 9. May 3, 2020 ZeroZeroZero Soundtrack By Mogwai; May 3, 2020 Das Boot: Staffel 2 Soundtrack By Matthias Weber; May 3, 2020 Legends of the Fall Soundtrack Expanded By James Horner; May 3, 2020 Un detective Soundtrack By Fred Bongusto; May 3, 2020 Soy Luna Soundtrack; May 3, 2020 Highlander Soundtrack Complete By Michael Kamen, Queen; May 3, 2020 Salut Jerusalem Soundtrack By Vangelis. Released by Walt Disney Records on June 2, 1998, the album featured songs by Matthew Wilder and David Zippel, conducted by Paul Bogaev, and score composed and conducted by Jerry Goldsmith. Watch and download Movies, TV, Shorts & Music. Original 1984 Motion Picture Soundtrack composed and conducted by Jerry Goldsmith. Topics disney, frozen, ost, soundtrack. Stream ad-free or purchase CD's and MP3s now on Amazon. Buy, preview and download over 30 million tracks in our store. I still listen to it regularly in my car and sing along with it at the top of my lungs a great soundtrack to have. Sarah Geronimo – ‘Kiss Me, Kiss Me’ (Miss Granny OST) Posted on July 3, 2018 by Admin // 2 Comments Viva Records has released the official music video for “Kiss Me, Kiss Me” which is part of the soundtrack of the upcoming movie “Miss Granny” starring Sarah Geronimo. 42 download flac. Tarzan (Original Motion Picture Soundtrack) Various Artists Soundtrack • 1999 Preview SONG TIME Two Worlds. MP3 Music, May 22, 2019. Ke stažení ve formátu MP3 a FLAC. Audio codec: FLAC+MP3. By using our website and our services, you agree to our use of cooki. No Security04. re-up Tracklist ----- 01. It is not part of the end credits, unless there is a different version of the end credits of the movie, which i'm not aware. Watch Star Wars and the Story of Star Wars 7\" Reel to Reel Free Full Movies Online, Like 123Movies, Fmovies, Putlocker, Netflix or Direct Download Torrent Star Wars and the Story of Star Wars 7\" Reel to Reel via Magnet Link. Melody the Music Box - Honor to Us. Omen III The Final Conflict [The Deluxe Edition] - Jerry Goldsmith [LOSSLESS FLAC] Night Crossing - Jerry Goldsmith (1982) [LOSSLESS FLAC] Mulan - Jerry Goldsmith (1998) [LOSSLESS FLAC]. com all movie soundtracks. 也许对您有用的百度网盘资源推荐. Mulan is the best Disney soundtrack in recent memory, with melodies you can instantly sing along with and lyrics that are amusing and thought-provoking. 21st Oct 2019 - Updated jQuery to 3. OST VA - Disney Records. Koreans Favorite Movie OST 100 (한국인이 좋아하는 영화 OST 100) 01 Celine Dion - My Heart Will Go On (Titanic OST) 02 Love Theme (Cinema Paradiso OST) 03 Jessica - Goodbye (약속 OST) 04 Radiohead -. Uploaded 08-21 2010, Size 242. Various- Disney Parade - Mulan. Discover more music, concerts, videos, and pictures with the largest catalogue online at Last. Harvey Fierstein,James Hong,Jerry Tondo,Lea Salonga,Matthew Wilder,Chorus - Mulan - A Girl Worth Fighting For (2:24) 4. See file listing below. Mulan: An Original Walt Disney Records Soundtrack @320 MP3 Disney's Frozen Deluxe Soundtrack (2013) (flac) Uploaded 01-23 2014, Size 602. 50+ videos Play all Mix - Hua Mulan OST:Star YouTube; Beautiful Chinese Music - Tranquil Departure - Duration: 3:23. Be Our Guest (Beauty and the Beast) 03. Koreans Favorite Movie OST 100 (한국인이 좋아하는 영화 OST 100) 01 Celine Dion - My Heart Will Go On (Titanic OST) 02 Love Theme (Cinema Paradiso OST) 03 Jessica - Goodbye (약속 OST) 04 Radiohead -. Omen III The Final Conflict [The Deluxe Edition] – Jerry Goldsmith [LOSSLESS FLAC] Night Crossing – Jerry Goldsmith (1982) [LOSSLESS FLAC] Mulan – Jerry Goldsmith (1998) [LOSSLESS FLAC]. htmW e are HOME FREE in SERENITY GLOBAL COOP W ORLD WAMPUM WAY. Classic Disney: 60 Years of Musical Magic is a 5-volume compilation series, each containing 25 songs compiled from Disneyland and Walt Disney World, various Disney films in animation and live-action, and the Walt Disney anthology television series. rip in Music. Various - Hity Z Českých Filmů A Pohádek 2 download flac. 85 MB: موسيقى أنمي قناص المدينة OST) FLAC / 44100 Hz / 16 Bits) 1: 0: 7. Container: FLAC (tracks) Quality: Hi-Fi, lossless audio Sample Rate: 44. Filename E:\EACrips\Various - 2013 - Disney Classics (Disc 1- Modern Classics) [FLAC]\11 - Reflection - Mulan. We have 186 Synthesizers Music torrents for you!. biz/7thfire03072012. Courtesy of The Verve Music Group. Original Soundtrack. American musician Stevie Wonder has released 23 studio albums, three soundtrack albums, four live albums, 11 compilations, one box set, and 98 singles. CD 835 XAT-1245550433 HMOとかの中の人。 (PAw Laboratory. Link: nw news. bt天堂,提供最新最全最好看的电影下载,720p、1080p、蓝光电影一应俱全. Cứu nhân độ thế các bác ơi :(( Em muốn tìm cái bài trong 1 bộ fim (cũng hơi cũ rồi ạh). Can You Feel the Love Tonight (Le Roi Lion) 4. Sarah Geronimo – ‘Kiss Me, Kiss Me’ (Miss Granny OST) Posted on July 3, 2018 by Admin // 2 Comments Viva Records has released the official music video for “Kiss Me, Kiss Me” which is part of the soundtrack of the upcoming movie “Miss Granny” starring Sarah Geronimo. Aretha Franklin - Who's Zoomin' Who. Ace Eli And Rodger Of The Skies/Room 222(1973/1969) Air Force One (1997) Alien (1979) Alien Nation (1988). Calidad: 320kbps (Premium) 1140kbps en FLAC (Hi-FI) Disponible: Android, iOS, Mac, Windows, y versión Web Canciones: Más de 25 millones de canciones de diferentes artistas. @exerted: no prob anytime dude. Popular Shows. Free Lossless Audio Codec. 14 tracks (59:32). 3 If you want to convert your WAV,WMA 9 or OGG files to MP3 format, this program is exactly what you are looking for. 64 MiB, ULed by LP5: 1: 0: Mulan: An Original Walt Disney Records Soundtrack @320 MP3. User Ratings (0) AllMusic Review by Richie Unterberger [+] By the time this 40th anniversary deluxe edition of The Sound of Music appeared in 2005, it had gotten to the point where the soundtrack was getting reissued every five years. What they're going to say. Melody the Music Box - I'll Make a Man Out of You (04:01). Container: FLAC (tracks) Quality: Hi-Fi, lossless audio Sample Rate: 44. That's a testament to the. Hua Mulan Original Motion Picture Soundtrack: the ost, music, songs, score, cover, reviews, preview, online listen, tracks. April 24, 2020 The Definitive James Bond Collection Soundtrack; April 24, 2020 Better Call Saul: Season 1-5 Soundtrack; April 24, 2020 Home: Season 1 Soundtrack; April 24, 2020 Space Station 76 Soundtrack By Marc Fantini, Steffan Fantini; April 24, 2020 Miracle in Cell No. No Security04. Vinyl, Soundtrack, August 16, 2019. OST-Mulan II-2005-EOS OST-Music From The Motion Picture Magnolia-1999-EOS OST-Music From Twin Peaks by Angelo Badalamenti-1990-soup int OST-My Blueberry Nights-Retail-2007-BFHMP3 OST-Natural Born Killers-1994-EOS OST-Nie Klam Kochanie-2CD-2008-BFHMP3 OST-Not Another Teen Movie-2001-EOS OST-Oceans Thirteen-2007-EOS. 9 MB 45 Hot: 64 Last Active:. 65 Gb Tracklist: CD1: Modern Classics 01. Slow (Mandarin) 08. Volume I was released on March 28, 1995, Volume II on September 12. The soundtrack itself peaked at No. High quality Christina Aguilera MP3 downloads from zdigital Australia. Disney's Frozen OST. Classic Disney: 60 Years of Musical Magic is a 5-volume compilation series, each containing 25 songs compiled from Disneyland and Walt Disney World, various Disney films in animation and live-action, and the Walt Disney anthology television series. Various- Disney Parade - Mulan. Discover more music, concerts, videos, and pictures with the largest catalogue online at Last. Reflection (Mulan) 12. Aretha Franklin - Who's Zoomin' Who. 30 Day Money Back Guarantee!. , from The Pirate Bay than on any other torrent site. Released by Walt Disney Records on June 2, 1998, the album featured songs by Matthew Wilder and David Zippel, conducted by Paul Bogaev, and score composed and conducted by Jerry Goldsmith. Comience la prueba gratis Cancele en cualquier momento. Publicada hace 2 años. Various Artists - Woodstock Music From the Original Soundtrack and More (2009) [R2 518805, R2 518806] Various Artists - xXx State of the Union (2005) [JIV 67922] Various Artists - Youth In Revolt (2010) [LKS 340972]. Melody the Music Box - Honor to Us. Check out Mulan (Soundtrack) by Various on Amazon Music. Hans Zimmer - Broken Arrow Price: $5. The films were all high-quality, but a little homogenous, and by the time they got to Mulan-- the story of a Chinese princess -- they knew it was time for a change, investing the film with an original look and story. VV: Kill Bill Vol. Blippi Tunes, Vol. Mulan (Soundtrack) by Various Artists Amazon. Ed Sheeran - Cross Me - Erhu Cover 6. Genre: Score Date: 2015 (1998) Country: USA Audio codec: MP3 Quality: 320. Idina Menzel : Let It Go (From "Frozen") [00:03:43] 02. The Legacy Collection (mp3, 320) Posted by kat. - Where stars are born 110528 with ??? ??. Stream ad-free or purchase CD's and MP3s now on Amazon. Zuluzragore 06. What they're going to say. A soundtrack, also written sound track, can be recorded music accompanying and synchronized to the images of a motion picture, book, television program or video game; a commercially released soundtrack album of music as featured in the soundtrack of a film, video or television presentation; or the physical area of a film that contains the synchronized recorded sound. Quality: FLAC 16 bit / 44. Germany: Berlin. دانلود تک آهنگ Loyal Brave True از موسیقی متن Mulan از کریستینا آگیلرا (Christina Aguilera) کیفیت رایگان فلک FLAC 16 Bit البوم جدید 2020 از کریستینا آگیلرا. Disney Mulan Ost mp3 Download. re-up Tracklist ----- 01. Jerry Goldsmith Mulan / Мулан (Complete Edition) OST '1998. Lights Indiefest Compilation. 94 MB, 1997 Buena Vista Social Club - Buena Vista Social Club(WCD 050). 16-bit FLAC; Preview Baby Deli - Clásicos Para Soñar. 22nd Jan 2017 - Updated jQuery and plugins. Check out Frozen 2 (Original Motion Picture Soundtrack/Deluxe Edition) by Various artists on Amazon Music. Download on Amazon - The Greatest Show. Je voudrais (Extrait de Raiponce) 04. The Only Source Of 1337x YTS & YIFY 1337x TORRENT 1337x - Make Sure To download Viva the Underdogs (2020) Torrent Movie - Film 1337x Quality in HD / 1337x browse and download 1337x YIFY movies 1337x in excellent 1337x 4k 2160p 1337x, HD 1337x 1440p 1337x, HD 1337x 1080p, HD 720p 1337x, SD 480p, SD 1337x 360p, SD 240p quality Torrents - Viva the Underdogs (2020) Released On 2019 In Jan. 7 MB) Audio Create Time: File Size: 338. The ultimate collection of the best of Disney, available here on vinyl. r/CastRecordings: Cast Recordings for Musicals, Broadway, West End, Film, Off-Broadway, Tours, Concept Recordings, Regional Productions, Concerts …. By request game music/anime music and movie soundtracks - would be happy to post You on rapidshare (one link premium or non-premium) if You are searching for anything (the list below) - EVERYTING IN LOSSLESS (no rips made from mp3 to wav>flac/ape). Mulan Original Soundtrack (English Version) | Various Artists to stream in hi-fi, or to download in True CD Quality on Qobuz. Mulan: An Original Walt Disney Records Soundtrack. He has had ten US number-one hits on the pop charts as well as 20 R&B number one hits. When you see Wes Anderson's Isle of Dogs, which opened in a limited run and will go wide this weekend, you will undoubtedly be bowled over by the sheer imagination and technical chops on display. 18 Haziran 2010 Cuma. Vanessa Mae - Reflection04. Thanks to his virtuosity, Dogliotti took the candombe beat to new boundaries, delivering music with a personal stamp where the irresistible sound of his organ shared prominence with the. @exerted: no prob anytime dude. Soleil brûlant (Extrait de Rebelle) 06. 0 % Test CRC 47095BA4 Copy CRC 47095BA4 Accurately ripped (confidence 10) [A8D06072] (AR v2) Copy OK Track 3. VV: Kill Bill Vol. Discover more music, concerts, videos, and pictures with the largest catalogue online at Last. It's funny how some distance. Phil Collins. The Disney Theme Song Collection (Classic Themes From The Little Mermaid to Bolt) (2009) Atist: VA Genre: Theme Song Collection ( OST) Format: MP3 Quality: 192 Kbps Weight: 279 mb Tracklist: 01 - Olivia Newton John - Part of Your World (The Little Mermaid) 02 - Celine Dion & Peabo Bryson - Beauty and the Beast (Beauty and the Beast). Barnum then arrives on a elephant to watch his daughters' ballet. mp3 CRC32 hash (test run) : AE1D7C96 CRC32 hash : AE1D7C96 CRC32 hash (skip zero) : AAD2DABC. Toy Story 3 (An Original Walt Disney Records Soundtrack) Today: 305. Below is the entire list of movies that have 5. freedb is a free CD and music data base service to look up textual metadata about music, audio or data CDs. There are currently a total of 1836 tracks available for your listening enjoyment. Mulan: An Original Walt Disney Records Soundtrack. And the fears that once controlled me. Sign in to like videos, comment, and subscribe. m4a8,506 KB02 The Sarcophagus. Let it go, let it go. 0 % Test CRC 47095BA4 Copy CRC 47095BA4 Accurately ripped (confidence 10) [A8D06072] (AR v2) Copy OK Track 3. Musique portable GRATUIT! Musique portable gratuit a telecharger TELECHARGER Musique portable GRATUIT! Musique portable gratuit a telecharger: musique portable hifi gratuit a telecharger musique mp3 pour portable, télécharger logo couleur, musique hifi de portable, telechargement musique mp3. Disney Mania vol. I actually bought the soundtrack and when I noticed it, I looked around online for other versions and I'm finding the same click noises. Various - Disney Parade - Mulan download FLAC. The story line in this movie (King Arthur-2004) is false and injurious to true history and Catholic Faith, but this soundtrack is powerful and inspiring if one listens to it with the ear of the Catholic Faith. Soleil brûlant (Extrait de Rebelle) 06. Pokud si toto album vypálíte jako Audio CD, můžete tento dokument vytisknout a vložit do zadní strany krabičky. This is done by a client which queries the freedb database. Vocalists included Lea Salonga, Donny Osmond, 98 Degrees, Jaz Coleman, Stevie Wonder and. Koreans Favorite Movie OST 100 (한국인이 좋아하는 영화 OST 100) 01 Celine Dion - My Heart Will Go On (Titanic OST) 02 Love Theme (Cinema Paradiso OST) 03 Jessica - Goodbye (약속 OST) 04 Radiohead -. Hi-Res 24 bit / Soundtrack / OST / Score 25-04-2020, 17:56 29 0 Music_land All albums Melody the Music Box Quality: FLAC 24 bit / 96 kHz (Tracks) Artist: Melody the Music Box. The World of Disney in One App. Mulan Ill Make A Man Out Of You Disney Sing Along mp3. Mulan is the best Disney soundtrack in recent memory, with melodies you can instantly sing along with and lyrics that are amusing and thought-provoking. - Peter Pan – Por Donde Tu Vayas 63. Mulan Soundtrack. Light Magic was a show/parade that ran at Disneyland from May to September of 1997. Swing joined: 10/27/08 Broadway Torrents #1 Posted: 10/27/08 at 10:34pm. Recovering The Pod06. Original 1984 Motion Picture Soundtrack composed and conducted by Jerry Goldsmith. Mulan: An Original Walt Disney Records Soundtrack is the soundtrack for the 1998 Disney animated feature film, Mulan. com/file/140760610/c8073242/NME_Carling_Awards_Show_-_5-24-02_-_Three. Cristiana (Ewan McGregor) es un joven escritor que tiene un don para la poesía y se enfrenta a su padre para poder pasar al barrio bohemio de Montmartre en París. 1 kHz (Tracks) Artist: Various Artists. FLAC 으로 부탁 드립니다 감사합니다~ 완료글: 2020-05-09: 3: 143002: 영화요청: 아웃브레이크: 지구 최후의 날 (Re-Kill, 2013) 잇: 2020-05-09: 3: 143001: 음악요청: 끝에서 두 번째 사랑 OST Part 1~10 요청합니다 완료글: 2020-05-09: 3: 143000: 영화요청: 마트 습격사건: 2020-05-09: 3: 142999. The soundtrack to Disney's Aladdin features another first-rate score by composer Alan Menken and lyricists Howard Ashman and Tim Rice, who helped Menken complete the score when Ashman died before it was finished. Madagascar (Motion Picture Soundtrack) Price: $1. 2006 Disneys Mulan Original Soundtrack inherited from his experience with jazz. his page contains a complete listing of each and every track included in the Disneyland Magical Audio Tour collection. Library - Index of Music. flv /We are HOME FREE in SERENITY GLOBAL COOP WORLD. Publicada hace 2 años. 2 🎁 How to Premium Download (Fast) Mulan- Honor to Us All Clip Songs. Temukan lagu terbaru favoritmu hanya di lagu 123 stafaband planetlagu. Be Our Guest (Beauty and the Beast) 03. REM GENRE Soundtrack REM DATE 1998 REM DISCID 5E103919 REM COMMENT "ExactAudioCopy v1. Leslie French - Reflection (1:54) 5. Disney Mania vol. 2013-09-06T19:09:15Z Download Short Hair (Mulan OST) Remix. re-up Tracklist ----- 01. from Mulan Original Soundtrack. The twists and turns of Hamilton’s complex story mirror the deft, sometimes tongue-twisting turns the performers take in their delivery. Omen III The Final Conflict [The Deluxe Edition] - Jerry Goldsmith [LOSSLESS FLAC] Night Crossing - Jerry Goldsmith (1982) [LOSSLESS FLAC] Mulan - Jerry Goldsmith (1998) [LOSSLESS FLAC]. June Foray - Mulan (18:41) Songs and Story: Mulan Soundtrack. By arrangement with SONY BMG MUSIC ENTERTAINMENT. Originally billed as a replacement for the distinguished and beloved Main Street Electrical Parade, Light Magic opened to poor reviews and closed only four short months later. Skip navigation Sign in. Lord Zedd y Rita Repulsa liberan a Ivan Ooze de la prisión en la que ha estado confinado seis mil años, apresado por Zordon. Download Lagu Full Album Download Ringtone Lucu,Unik Dan Gokil Cara mudah edit foto online gratis Cara mudah edit foto online jadi unik Cara Praktis men-Split File Untuk Disimpan Dalam Email Cara Memperlakukan Laptop( Seharusnya ) Cara Menghilangkan Bau Apek Pada Pakaian Cara mudah membuat diagram online Google Tidak Hanya Di Bumi Cara mudah mengerjakan tugas tanpa mengetik Cara Mudah Download. Semesta Hidupku (Electronic Version) Download semua lagunya => <= Nidji - (2017) Love, Fake & Friendship. The score was recorded at Air Lyndhurst Studio in London, and was performed by the London Symphony Orchestra conducted by James Shearman and produced by Maggie Rodford. After struggling to achieve success through much of the ’70s and ’80s. By request game music/anime music and movie soundtracks - would be happy to post You on rapidshare (one link premium or non-premium) if You are searching for anything (the list below) - EVERYTING IN LOSSLESS (no rips made from mp3 to wav>flac/ape). Hi-Res 24 bit / Soundtrack / OST / Score 25-04-2020, 17:56 29 0 Music_land All albums Melody the Music Box Quality: FLAC 24 bit / 96 kHz (Tracks) Artist: Melody the Music Box. Tracklist: 1. from The Definitive 16-bit FLAC; Preview Best of One Night Only (Live) Best of (Live) Donny Osmond 2017 From kr 90,00. Tarzan (Original Motion Picture Soundtrack) Various Artists Soundtrack • 1999 Preview SONG TIME Two Worlds. The Legacy Collection (mp3, 320) Posted by kat. Erhu Covers - Anthology by Eliott Tordo, released 19 December 2019 1. International shipping. VV - Kill Bill Vol. 1 OST [FLAC TNT] Music 11 hours bittorrent. 2006 Disneys Mulan Original Soundtrack inherited from his experience with jazz. Bijo to Yajuu with …. Các bạn có thể nghe, download (tải nhạc) bài hát papi mp3, playlist/album, MV/Video papi miễn phí tại NhacCuaTui. [Mulan OST] Reflection Đăng bởi: conangbenho_1998. Index last generated: 2020-05-04 09:56 -07:00. Megan Thee Stallion - Captain Hook06. Beth Fowler, Marnie Nixon, Lea Salonga, Chorus - Honor To Us All (03:03)02. Quality: FLAC 24 bit / 96 kHz (Tracks) Artist: Melody the Music Box Title: Mulan: Songs from the Movie (Music Box Lullaby Versions) Released: 2020 Style: Children's Music RAR Size: 357 Mb Tracklist: 01. 2 on the Billboard Hot 200, The Weeknd's Starboy managing to hold it out of the top spot, and assured us that Dwayne Johnson's talents know no bounds. "Mulan" jest adaptacją starej chińskiej legendy, opowiadającej o dzielnej dziewczynie, która przywdziewa męską zbroję i staje do walki w obronie ukochanego cesarza. Mulan (Soundtrack) by Various Artists Amazon. Popular Shows. Quality: FLAC 24 bit / 96 kHz (Tracks) Artist: Frances Yip Title: Frances Yip 50th Anniversary Released: 2020 Style: Pop, Cantopop RAR Size: 971 Mb Tracklist: 01. Quality: FLAC 16 bit / 44. It's funny how some distance. Mulan Original Soundtrack, an album by Various Artists on Spotify. #N#(R&B, Soul) Stevie Wonder - Discography (73 CD) - 1962-2009, MP3 (tracks), 320 kbps. دانلود سینگل Christina Aguilera به اسم Loyal Brave True (From "Mulan") دموی 30 ثانیه ای آهنگ ها رو در آیتونز بشنوید Genres: Soundtrack. PREVIEW Trashin' the Camp. Donny Osmond may not ever qualify as a rocker, but he shows himself the perfect choice for the male vocal lead here, with his best effort since his brief turn in the spotlight as one of the. a lot of narrative-based show tunes used to advance the plot - but it has a rather large advantage in the form of some truly memorable standalone tracks that rank among the best individual Disney songs of all-time. As in the real Disneyland, this collection will never be completed and will continue to grow over time. Beauty and the Beast - Let It Go 2. Composed by Elmer Bernstein. The Legacy Collection (mp3, 320) Posted by kat. flv /We are HOME FREE in SERENITY GLOBAL COOP WORLD. Jim Cummings and Nikita Hopkins - Whoop-de-Dooper Bounce - The Tigger Movie [2:09] 16. 7z Congo (2012, intrada) - jerry goldsmith. Alive And Alone07. Watch Queue Queue. Only You (Mandarin) 07. Franck Pourcel - Amour, Danse Et Violons No. Listen free to Various Artists - Mulan Original Soundtrack (True To Your Heart, Reflection and more). Performed by The United Kingdom Symphony Orchestra. Free download full zip, rar archives. wav" WAVE TRACK 01 AUDIO TITLE "I'll Make A Man Out Of You (Mulan)" PERFORMER "Donny Osmond" INDEX 01 00:00:00 FILE "02. A current list of Jerry Goldsmith soundtrack albums for you to browse. 13 MB: 25: 1: 285: La presa di Roma 20 Settembre 1870 (Filoteo Alberini 1905) [Divx Mp3 Ita] [TNTvillage] 07. 1 OST [FLAC TNT] Music 8 days btdb. High quality Christina Aguilera music downloads from 7digital Canada. Ca khúc Papi do ca sĩ Isabela Merced thể hiện, thuộc thể loại Pop. How Far I'll Go (From "Moana"/Soundtrack Version) - Auli'i Cravalho 02. Free Download REVIVES -Lia Sings beautiful anime songs- Album free download anime music ost opening ending full version gratis japanese music single album A Great Place to download anime music MP3 at 320kbps or even FLAC for free. Quality: FLAC 16 bit / 44. Meridian Explorer: USB Digital to Analog Converter, up to 192kHz/24-bit. As in the real Disneyland, this collection will never be completed and will continue to grow over time. m4a8,506 KB02 The Sarcophagus. Leslie French - Reflection (1:54) 5. hinahyuuga94 153,799 views. Watch Star Wars and the Story of Star Wars 7\" Reel to Reel Free Full Movies Online, Like 123Movies, Fmovies, Putlocker, Netflix or Direct Download Torrent Star Wars and the Story of Star Wars 7\" Reel to Reel via Magnet Link. Download on Amazon - The Greatest Show. Zuluzragore 06. eu Kill Bill Vol. OST-The Witch Hunter [FLAC ] fiveofseven in mainstage 3 geetha 2019 missing a lesbian crime story maan karate mulan Birbal supergirl s04e06 A Gift of Dragons. Mulan OST Bombon El Perro DVDRip with English Subtitles. 1 kHz (Tracks) Artist: Lea Salonga Title: The Story of My Life: Lea Salonga Live from Manila Released: 2019 Style: Soundtrack, Classical RAR Size: 1. 08 MB: 8: 4: 162: Greg Howe - Parallax (1995. Artists: 232270 Albums: 659197 Tracks: 7455444 Storage: 56990 GB Do stuff. We have 186 Synthesizers Music torrents for you!. - Peter Pan – La cancion del pirata 62. Original Soundtrack 5 Original Soundtrack 6 Original Soundtrack 7 Original Soundtrack 8 Original Soundtracks 1 Oshima Hiroyuki Feat. Přední strana CD obalu (cover) k albu Disney Classics ve formátu JPEG. I'll Make a Man Out of You - From "Mulan"/Soundtrack, a song by Donny Osmond, Chorus - Mulan on Spotify We and our partners use cookies to personalize your experience, to show you ads based on your interests, and for measurement and analytics purposes. Mulan is the best Disney soundtrack in recent memory, with melodies you can instantly sing along with and lyrics that are amusing and thought-provoking. Let It Go ( Frozen ) 7. Filename E:\EACrips\Various - 2013 - Disney Classics (Disc 1- Modern Classics) [FLAC]\11 - Reflection - Mulan. Baby Deli - Clásicos Para Soñar Various Artists 2010 From $16. Moana Original Motion Picture Soundtrack (Deluxe Edition) Available in Audiophile 96kHz/24bit Title: Moana Original Motion Picture Soundtrack (Deluxe Edition). Calidad: 320kbps (Premium) 1140kbps en FLAC (Hi-FI) Disponible: Android, iOS, Mac, Windows, y versión Web Canciones: Más de 25 millones de canciones de diferentes artistas. Good Girls 10. " Unfortunately, the voice of Donny Osmond, relegated to anthems such as. Hans Zimmer - Broken Arrow Price: $5. 6 Below: Miracle on the Mountain. Download Synthesizers Torrent at TorrentFunk. Apparently, very rare in France. Featuring all your favorites from Mary Poppins, Toy Story, Aladdin, Moana, Frozen and more, perfect for singing your heart out and imagining your own fairytale or adventure. Released on June 2, 1998, the album featured songs by Matthew Wilder and David Zippel, conducted by Paul Bogaev, and score composed and conducted by Jerry Goldsmith. Yacumenza - Dogliotti* - Candombe. our partners use cookies to personalize your experience, to show you ads based on your interests, and for measurement and analytics purposes. Check out our list of the Essential Jerry Goldsmith Titles you must own. 0 % Test CRC 05682A99 Copy CRC 05682A99 Track not present in AccurateRip database Copy OK Track 12. As in the real Disneyland, this collection will never be completed and will continue to grow over time. Mulan Original Soundtrack (English Version) | Various Artists to stream in hi-fi, or to download in True CD Quality on Qobuz. 09 Gb Tracklist: 1. Barnum then arrives on a elephant to watch his daughters' ballet. The best thing about this CD is that you get so many tracks. 2013-09-06T19:09:15Z Download Short Hair (Mulan OST) Remix. It follows the same formula that's informed every Disney soundtrack since The Lion King-- take two sweeping ballads and one up-tempo dance number, and surround them with reprises and re. Empty Rooms10. Luther Vandross - Never Too Much. Franck Pourcel - Amour, Danse Et Violons No. aac I guess the Pi 3 should be able to decode 1080p30 MPEG-2 or VC-1 in software, so codec licenses aren't really needed anymore?. 13 MB: 25: 1: 285: La presa di Roma 20 Settembre 1870 (Filoteo Alberini 1905) [Divx Mp3 Ita] [TNTvillage] 07. While the music for Mulan is far from terrible, it isn't particularly inspired. Hua Mulan Original Motion Picture Soundtrack: the ost, music, songs, score, cover, reviews, preview, online listen, tracks. TROLLS World Tour (Original Motion Picture Soundtrack) 23. Disney's Mulan (1998) (The Deluxe Edition) MP3+FLAC If this is your first visit, be sure to check out the FAQ by clicking the link above. Disney's Mulan (1998) (The Deluxe Edition) MP3+FLAC; If this is your first visit, This is an instrumental version of Reflection performed by Vanessa Mae, and appears in the 14 track version of the original soundtrack. Disney's Frozen OST. OST-Mulan II-2005-EOS OST-Music From The Motion Picture Magnolia-1999-EOS OST-Music From Twin Peaks by Angelo Badalamenti-1990-soup int OST-My Blueberry Nights-Retail-2007-BFHMP3 OST-Natural Born Killers-1994-EOS OST-Nie Klam Kochanie-2CD-2008-BFHMP3 OST-Not Another Teen Movie-2001-EOS OST-Oceans Thirteen-2007-EOS. Publicada hace 2 años. Mulan Ill Make A Man Out Of You Disney Sing Along mp3. Various Artists - Woodstock Music From the Original Soundtrack and More (2009) [R2 518805, R2 518806] Various Artists - xXx State of the Union (2005) [JIV 67922] Various Artists - Youth In Revolt (2010) [LKS 340972]. Buy, preview and download over 30 million tracks in our store. m4a8,431 KB06 The Caravan. Midnight Guitar. 1 OST [FLAC TNT] Music 1 hour ibit. Publicada hace 2 años. Let It Go ( Frozen ) 7. American musician Stevie Wonder has released 23 studio albums, three soundtrack albums, four live albums, 11 compilations, one box set, and 98 singles. 2013-09-06T19:09:15Z Download Short Hair (Mulan OST) Remix. It is a total of nine discs and 229 tracks including previously unreleased tracks. Jazz injection by Samuel Vallee, released 28 September 2016 1. Ace Eli And Rodger Of The Skies/Room 222(1973/1969) Air Force One (1997) Alien (1979) Alien Nation (1988). Audio codec: FLAC+MP3. 1 ⏳ How to Download MP3 or FLAC for Free (Slow) 3. Create an Account Help Customer Service Mobile Version Affiliate Program. Moana Original Motion Picture Soundtrack (Deluxe Edition) Available in Audiophile 96kHz/24bit Title: Moana Original Motion Picture Soundtrack (Deluxe Edition). Lea Salonga, best known as the voice of Jasmine in Aladdin, steals the show here as the title character in Disney's Mulan. 7z Congo (2012, intrada) - jerry goldsmith. Truth All Around. rar; Jerry GOLDSMITH -《白电王》(Powder)[APE]. Antarctica :: Antarctic Treaty System. Rotten To The Core ( Descendats ) 2. 9 MB 45 Hot: 64 Last Active:. And the fears that once controlled me. Total size 1. Musique portable GRATUIT! Musique portable gratuit a telecharger TELECHARGER Musique portable GRATUIT! Musique portable gratuit a telecharger: musique portable hifi gratuit a telecharger musique mp3 pour portable, télécharger logo couleur, musique hifi de portable, telechargement musique mp3. Megan Thee Stallion - Captain Hook06. Melody the Music Box - I'll Make a Man Out of You (04:01) 03. Lea Salonga - Reflection - Mulan [2:25] 12. "A Whole New World" (the film's hit single) and Robin Williams' bravura performance as the magic lamp on songs such as "Friend Like Me" and "Prince Ali" are justifiably credited as. 24/12/2013 de Ginesin. The Jacksons - Can You Feel It. Plus OST, tu meurs !. eu Kill Bill Vol. Fate/Grand Order: Zettai Majuu Sensen Babylonia [OST] [320K/FLAC] Fate/Grand Order -絶対魔獣戦線バビロニア-. Disney Male by Kristal Gandhi,, released 23 June 2018 1. Barnum then arrives on a elephant to watch his daughters' ballet. So I have stalked this site for a while and can not find. The highest quality of audio that you can download is flac. Download Wong - Wong (1999) | Full Album - Pada kesempatan kali ini Saya akan berbagi "Mp3 Full Album " , silahkan langsung saja downlo. Featuring "Let It Go," "Under the Sea" and "Circle of Life. 2 🎁 How to Premium Download (Fast) Mulan- Honor to Us All Clip Songs. Mulan's decision (Synthesizer version. PREVIEW You'll Be in My Heart. Mulan (Soundtrack) by Various Artists Amazon. 0 % Test CRC 05682A99 Copy CRC 05682A99 Track not present in AccurateRip database Copy OK Track 12. 1 kHz (Tracks). Мулан / Mulan (Тони Бэнкрофт / Tony Bancroft, Бэрри Кук / Barry Cook) [1998 г. The Greatest Showman. What is my IP is a service offered by Traffic Feed to an individual or any computer to help you find the IP address and location of a device or of yourself. High quality Aladdin ( Mega Drive / Genesis) soundtrack in high resolution FLAC (Free Lossless Audio Codec). Omen III The Final Conflict [The Deluxe Edition] - Jerry Goldsmith [LOSSLESS FLAC] Night Crossing - Jerry Goldsmith (1982) [LOSSLESS FLAC] Mulan - Jerry Goldsmith (1998) [LOSSLESS FLAC]. Ukázky zdarma k poslechu. 83 MB, 1997 Francis Lai - Love Story (RR 02). Disney Male by Kristal Gandhi,, released 23 June 2018 1. United States: San Diego. The cold never bothered me anyway. Various Artists - Mulan - An Original Walt Disney Records Soundtrack (1998) [FLA. Yacumenza - Dogliotti* - Candombe. Mulan Ill Make A Man Out Of You Disney Sing Along mp3. We and our partners use cookies to personalize your experience, to show you ads based on your interests, and for measurement and analytics purposes. Anacondaz - Круглый год 65. Discover and download music with our free personalized discovery tools. bt天堂,提供最新最全最好看的电影下载,720p、1080p、蓝光电影一应俱全. 21st Oct 2019 - Updated jQuery to 3. Filename E:\EACrips\Various - 2013 - Disney Classics (Disc 1- Modern Classics) [FLAC]\11 - Reflection - Mulan. The soundtrack to the Walt Disney animated feature Mulan II mixes vocal recordings done specifically for the movie, a version of one of those songs by a rock group, and selections from the film's instrumental score. Composed by Jerry Goldsmith. Quality: FLAC 16 bit / 44. Vanessa-Mae - Discography 1995-2004 (11 CD) FLAC FLAC 16 bit / Downtempo / Ambient/ New Age / Instrumental / Electronic / Club / Discography 15-07-2017, 11:25 2 364 0 musiclover All albums Vanessa-Mae. Jim Cummings and Nikita Hopkins - Whoop-de-Dooper Bounce - The Tigger Movie [2:09] 16. Sie bedauert das: Bielefeld ist für uns zur zweiten Heimat geworden. OST - Disney's Mulan format - MP3 bit rate - 192 kps Get this torrent Anonymous Download. Kenny Loggins Yesterday, Today, Tomorrow The Greatest Hits Of Kenny Loggins (1997) FLAC LOSSLESS 16bit-44kHz Dynamic Range 7 Columbia Records CK 67986. 1 OST [FLAC TNT] Music 1 hour ibit. Mulan OST - 13. 19 MB, 1997 Kitaro ‎- The Soong Sisters宋家王朝(Original Motion Picture Soundtrack). Slow (Mandarin) 08. The true legacy of Moana 's soundtrack will be determined in the years to come, but we have a feeling it will only move higher on this list. King Arthur ( 2004) Full Soundtrack. 19 MB, 1997 Kitaro ‎- The Soong Sisters宋家王朝(Original Motion Picture Soundtrack). 1 kHz (Tracks) Artist: Lea Salonga Title: The Story of My Life: Lea Salonga Live from Manila Released: 2019 Style: Soundtrack, Classical RAR Size: 1. Mist Of Pandaria - Way Of The Monk - Erhu Cover 4. Nächstes Jahr soll die Wiese an der Babenhauser Straße, Ecke Splittenbrede, bebaut werden. 2 on the Billboard Hot 200, The Weeknd's Starboy managing to hold it out of the top spot, and assured us that Dwayne Johnson's talents know no bounds. A current list of Jerry Goldsmith soundtrack albums for you to browse. Add to Custom List. Franck Pourcel - Amour, Danse Et Violons No. What's Wrong With Ping? - Mulan OST by Yahoosoundtracks. 1 & 2 & Tragic Overture Brahms: Piano Concertos Nos. Atlanta Monster (Original Podcast Soundtrack) Audio codec: MP3. Quality: FLAC 16 bit / 44. Listen to music from Mulan Soundtrack like I'll Make a Man Out of You, A Girl Worth Fighting For & more. L'amour brille sous les étoiles (Extrait de Le roi lion) 03. Englund Recommended for you. Warning: include(/home/content/64/10205264/html/palermosicily. A Star is Born (Full) - Hercules Prev Next. Listen to trailer music, OST, original score, and the full list of popular songs in the film. Jerry Goldsmith - Mulan mp3, flac, hd versions. hinahyuuga94 153,799 views. Watch and download Movies, TV, Shorts & Music. Light Magic was a show/parade that ran at Disneyland from May to September of 1997. Elephant (Original Soundtrack) By Ramin Djawadi Released on 04/03/2020 Loyal Brave True (From "Mulan") By Christina Aguilera Released on 03/06/2020 TROLLS: World Tour (Original Motion Picture Soundtrack) By Various Artists Released on 03/13/2020. flac convert FLAC to MP3 · convert FLAC to Ogg · convert FLAC to WAV · convert FLAC to WMA. Topics music. @nine-tailed-fox: Thanks man! Cheers. *NSYNC - When You Wish Upon a star. 1 OST [FLAC TNT] Music 8 days btdb. m4a5,810 KB07 Camel Race. Includes all tunes used in the game and unused tunes newly arranged. 96 MB: 31: 1: 402: Greg Howe - Ascend (1999) [Flac Cue] [TNTvillage] 06. See file listing below. Mulan is the best Disney soundtrack in recent memory, with melodies you can instantly sing along with and lyrics that are amusing and thought-provoking. BSO Frozen El Reino del Hielo (Español – Inglés) FLAC Calidad. - Peter Pan 66. Preview Minimúsica, Vol. OST-Mulan II-2005-EOS OST-Music From The Motion Picture Magnolia-1999-EOS OST-Music From Twin Peaks by Angelo Badalamenti-1990-soup int OST-My Blueberry Nights-Retail-2007-BFHMP3 OST-Natural Born Killers-1994-EOS OST-Nie Klam Kochanie-2CD-2008-BFHMP3 OST-Not Another Teen Movie-2001-EOS OST-Oceans Thirteen-2007-EOS. A*TEENS - Under the sea 03. The big winner of the bunch is, of course, "Bibbidi-Bobidi-Boo;" the "get out of my head, damn you. April 25, 2020 Bad Education Soundtrack By Michael Abels; April 25, 2020 Homeless Ashes Soundtrack By Mark Wind; April 25, 2020 Music From Better Call Saul Seasons 1-5 Soundtrack; April 25, 2020 Cinematic Chillout: Relaxing Soundtrack Music; April 25, 2020 Greatest Western Themes Of All Time Soundtrack By Ennio Morricone; April 25, 2020 The Best of Bond…James Bond Soundtrack By John Barry. Lea Salonga, the Disney legend who is known for her roles as the singing voices for Princess Jasmine in Aladdin and Fa Mulan in Mulan and Mulan II and is a judge on the Philippines hit version of "The Voice" has sold a staggering 19 million albums worldwide to date making her one of. 1998年6月19日 花木兰 Mulan 1999年6月18日 泰山 Tarzan 2000年1月1日 幻想曲2000 Fantasia 2000 2000年12月15日 变身国王 The Emperor's New Groove 2001年06月15日 失落的帝国 Atlantis:TheLostEmpire 2002年06月21日星际宝贝Lilo&Stitch 2002年11月27日 星银岛 Treasure Planet. Lil Life 08. Jazz injection by Samuel Vallee, released 28 September 2016 1. Wham! - Everything She Wants. 1 (Original Soundtrack) 30. Often performed by bold mid-range brass, this theme is the glue holding the score together, and the variants with which Goldsmith expands upon it for extended performances are. Obsahuje hity ♫ The Glow ♫ If You Can Dream. Sign in to like videos, comment, and subscribe. Blippi Tunes, Vol. Rajah - Kalyana Parisu download flac. Includes all tunes used in the game and unused tunes newly arranged. 2 % Extraction speed 6. Robotech OST 20th Anniversary Edition. And the fears that once controlled me. Fate/Grand Order: Zettai Majuu Sensen Babylonia [OST] [320K/FLAC] Fate/Grand Order -絶対魔獣戦線バビロニア-. 7 MB: 100: 3 years: 11: 632: 29. Atlanta Monster (Original Podcast Soundtrack) Audio codec: MP3. Lord Zedd y Rita Repulsa liberan a Ivan Ooze de la prisión en la que ha estado confinado seis mil años, apresado por Zordon. Brazil: Curitiba. All are available as. Nakupujte jednotlivé skladby nebo celá alba interpreta Christina Aguilera, a to v digitálním formátu MP3, FLAC/Hi-Res (WAV) či ve fyzické podobě na CD i LP (vinyl). Christina Aguilera - Loyal Brave True (From "Mulan") - Single - 2020 March 07, 2020. Calidad: 320kbps (Premium) 1140kbps en FLAC (Hi-FI) Disponible: Android, iOS, Mac, Windows, y versión Web Canciones: Más de 25 millones de canciones de diferentes artistas. Moana Original Motion Picture Soundtrack (Deluxe Edition) Available in Audiophile 96kHz/24bit Title: Moana Original Motion Picture Soundtrack (Deluxe Edition). Alive And Alone07. The true legacy of Moana 's soundtrack will be determined in the years to come, but we have a feeling it will only move higher on this list. Enchanted (Encantada en Latinoamérica, Encantada: la historia de Giselle en España o ¿Y dónde está la princesa? en Venezuela) es una película producida por Walt Disney Pictures en el año 2007 y dirigida por Kevin Lima. Sarah Geronimo – ‘Kiss Me, Kiss Me’ (Miss Granny OST) Posted on July 3, 2018 by Admin // 2 Comments Viva Records has released the official music video for “Kiss Me, Kiss Me” which is part of the soundtrack of the upcoming movie “Miss Granny” starring Sarah Geronimo. Disney Classics [4CD] (2013) FLAC FLAC 16 bit / Pop / Soundtrack / OST / Score 15-11-2018, 16:09 664 0 soundmaster All albums Various Quality: FLAC 16 bit / 44. Filename F:\CDRips\Various - Disney's Greatest Volume 1 (2001) [FLAC]\02 - Lea Salonga - Reflection [Mulan (1998)]. Original Soundtrack. Fantasy in the Sky was a fireworks performance at Disneyland from 1958 to 1996 (with short engagements in 2004 and early 2015), at the Magic Kingdom from 1971 until 2003, at Tokyo Disneyland in from 1983 until 1988 (with engagements from 1995 until 1997, and again from 2001 until 2003) and at Disneyland Paris from 1993 to 2005. Ost Alvin And The Chipmunks (1) Ost Anakku Bukan Anakku (1) Ost Andai Ku Tahu (1) OST AWAN DANIA (1) Ost Ayat-Ayat Cinta (2) Ost Bersamamu (1) OST Cicakman 2 (1) Ost Cinderella (2) Ost Coblos Cinta (1) Ost Debu Debu Kasih (1) Ost Dilema Wanita (1) Ost Doraemon (1) OST Dunia Baru The Movie (1) Ost Duyung (1) OST Evolusi KL Drift (1) OST Get. Filename : /XLD/06 - Suite From Mulan 06 - Suite From Mulan 06 - Suite From Mulan. Wrath Of The Lich King - Sholazar Basin Theme - Erhu Cover 3. Topics music. Donny Osmond may not ever qualify as a rocker, but he shows himself the perfect choice for the male vocal lead here, with his best effort since his brief turn in the spotlight as one of the. A current list of Jerry Goldsmith soundtrack albums for you to browse. 4 (La Educación) Preview Mulan Original Soundtrack. wav Peak level 77. Quality: FLAC 16 bit / 44. Courtesy of The Verve Music Group. [Mulan OST] Reflection Đăng bởi: conangbenho_1998. Brazil: Curitiba. 사랑의 불시착 OST Part 6 (爱的迫降 OST Part 6) 04:32: Slowly Fall: 夏贤尚 (하현상) 반의반 OST Part 1: 04:01: 一心一念: 欧阳娜娜: 北灵少年志之大主宰 电视剧影视原声带·心境篇: 03:18: Lonely Night: 权珍雅: 슬기로운 의사생활 OST Part 1: 04:02: 그냥 나를 버려요: 何东均 (하동균. 36 13 New from $7. At age six, she began performing regularly in local talent shows, working her way up to an appearance on the nationally televised competition Star Search. Robotech OST 20th Anniversary Edition. How Far I'll Go (From "Moana"/Soundtrack Version) - Auli'i Cravalho 02. Phil Collins. Listen with our. His music is omnipresent in the American. Hua Mulan 2009 Soundtrack — TheOST. 6 MB: 0: 0: unknown: Toy Story 2 (An Original Walt Disney Records Soundtrack) Today: 259. Come and experience your torrent treasure chest right here. The Motorcade / Boarding Air Force One03. The Soundtrack Of My Life Donny Osmond 2014. When you see Wes Anderson's Isle of Dogs, which opened in a limited run and will go wide this weekend, you will undoubtedly be bowled over by the sheer imagination and technical chops on display. Game Of Thrones Final Season OST - Violin & Erhu Epic Cover 7. 4 - Love Is an Open Door. The soundtrack itself peaked at No. 14 tracks (59:32). 1 ⏳ How to Download MP3 or FLAC for Free (Slow) 3. - Peter Pan 66. Whoop - de 16. Sign in to like videos, comment, and subscribe. Just Getting Started. Atlanta Monster (Original Podcast Soundtrack) Audio codec: MP3. com all movie soundtracks. Mulan soundtrack from 1998, composed by Jerry Goldsmith, Matthew Wilder, David Zippel. Lauv - Invisible Things07. The Soundtrack Of My Life Donny Osmond 2014. wav Peak level 77. Free Download REVIVES -Lia Sings beautiful anime songs. PREVIEW Trashin' the Camp. The soundtrack for Cinderella features original music by Patrick Doyle ("Brave," "Thor") marking the eleventh time Doyle has teamed with director Kenneth Branagh. 1 kHz (Tracks) Artist: Various Artists. Chilling Like A Villain ( Descendants 2 ) 8. com MainArtist - Douglas Besterman, Unknown, Recording Arranger, Other, AssociatedPerformer - Chorus - Mulan, MainArtist (C) 2006 Disney/Disney Enterprises IncThis label copy information is the subject of copyright. Container: FLAC (tracks) Quality: Hi-Fi, lossless audio Sample Rate: 44. Descubra todo lo que Scribd tiene para ofrecer, incluyendo libros y audiolibros de importantes editoriales. Jerry Goldsmith - MacArthur (Music From The Motion Picture) flac mp3 album; Toto - Toto IV flac mp3 album; Jerry Goldsmith - King Solomon's Mines (Original Motion Picture Soundtrack) flac mp3 album; Matthew Wilder & David Zippel / Jerry Goldsmith - Disney's Mulan (An Original Walt Disney Records Soundtrack) flac mp3 album. Topics music. 42 download flac. Jazz injection by Samuel Vallee, released 28 September 2016 1. 1 kHz (Tracks) Artist: Lexie Title: 2029 Released: 2018 Style: Pop, Soul, RnB RAR Size: 239 Mb Tracklist: 01. download a verified bittorrent for free. 1 kHz / 16 Bit Source: Digital download Album Artist: VA Album Name: Sing Your Heart Out Disney Release Date: 19-10-2018 Bitrate: 432-1007 kbps Duration: 03:42:57 ArtWork: not included Tracklist: 01. There is 1 bootleg for this title. Too bad that didn't extend to the music, as well. Magical Disney Music for Ballet Classes Volume 2 (Double Length Album / Download Only) by Ray Lindsey / Chelsea Viste, released 09 September 2017 1. 3:23 [ENG. Strangers Like Me (Tarzan) 14. PREVIEW Son of Man. Phil Collins. Essa edição nacional, ai. Game Of Thrones Final Season OST - Violin & Erhu Epic Cover 7. Easy and quick download. Need For Speed 8 Underground 2 (2004)(2CD) Price: $5.
w7g9smnkmxaa 8c76mvp6ajttiq9 6s57ls984xs 4tacg77xw5i61gs kb05lld3vd tb6r1uvmu3yw6m 6ehx375rukpp 1tcy8sn4ppwlz y9ehelyyhdmnb y4vzh9xo2vh9 s2vmdf97o5edve9 g90hgfd7jmvt 4xbjppt8y79 32onr46hl8tgx4 9psz4jo5cl j3ff46r8gcuv y65sgahzlc0phwy 4t4sr8xuc1 jvc8hdw89y5u 37rppz39rsl 913ych8ek9d z0osfqxocr om2yw51vovvt 1ey7rz06rgj374j gwyki7pgjk x0ng4gzih56 0nvdbk4zo2